[IrizaRaws] Tensei Shitara Slime Datta Ken Coleus no Yume (BDRip 1920x1080 x264 10bit FLACx2)

Category:
Date:
2024-05-14 20:47:57
Submitter:
Seeders:
4
Information:
Leechers:
17
File size:
7.9 GiB
Completed:
0
Info hash:
1b3927c68a733e294c813f2a7f8b0933d60e473d
Hello! My rips are made from Japanese BDMV, unless stated otherwise. In terms of video quality, my raws should be comparable to ReinForce (since I started from their settings, and then modified it). I don’t use AA, blur, denoise and other such “enhancements”. Basically, the idea of my encodes will be: as similar to BDMV as possible, while reducing size 3-4 times. Also I will rip Audio Commentaries, interview’s and such things (everything, that’s on BD). Again, If you found any Bugs, mistakes, problems etc. Please comment! If needed I will reencode. About this Anime: https://myanimelist.net/anime/54565 https://anidb.net/anime/17873 SEED PLEASE! Acknowledgments for BDMV: koyomi Acknowledgments for Soundtrack: 無損音樂及Hi-res聲明 Hi-res OP 由cika.自購 https://www.tsdm39.com/forum.php?mod=viewthread&tid=1179721 動漫音樂微博,最新自購無損音樂更新情況 https://weibo.com/dmmusic 天使動漫TSDM自購,天使動漫音樂區原貼鏈接 https://www.tsdm39.com/forum.php?mod=forumdisplay&fid=247 天使動漫合購/自購陷入困境,懇請大家參與 http://www.tsdm.vip/?tid=1176684 MediaInfo: General Unique ID : 114296629310511014887897394029900567814 (0x55FCBAE762B6D6A6AFE5B9BD4F039506) Complete name : D:\work\Rip\[IrizaRaws] Tensei Shitara Slime Datta Ken Coleus no Yume (BDRip 1920x1080 x264 10bit FLACx2)\[IrizaRaws] Tensei Shitara Slime Datta Ken Coleus no Yume - 01 (BDRip 1920x1080 x264 10bit FLACx2).mkv Format : Matroska Format version : Version 4 / Version 2 File size : 2.28 GiB Duration : 24 min 32 s Overall bit rate mode : Variable Overall bit rate : 13.3 Mb/s Encoded date : UTC 2024-05-12 21:12:57 Writing application : mkvmerge v80.0 ('Roundabout') 64-bit Writing library : libebml v1.4.4 + libmatroska v1.7.1 Video ID : 1 Format : AVC Format/Info : Advanced Video Codec Format profile : High [email protected] Format settings : CABAC / 8 Ref Frames Format settings, CABAC : Yes Format settings, RefFrames : 8 frames Codec ID : V_MPEG4/ISO/AVC Duration : 24 min 32 s Bit rate : 11.3 Mb/s Width : 1 920 pixels Height : 1 080 pixels Display aspect ratio : 16:9 Frame rate mode : Constant Frame rate : 23.976 (24000/1001) FPS Color space : YUV Chroma subsampling : 4:2:0 Bit depth : 10 bits Scan type : Progressive Bits/(Pixel*Frame) : 0.227 Stream size : 1.94 GiB (85%) Writing library : x264 core 164 r3164 c196240 Encoding settings : cabac=1 / ref=8 / deblock=1:-2:-2 / analyse=0x3:0x113 / me=umh / subme=9 / psy=1 / psy_rd=0.70:0.00 / mixed_ref=0 / me_range=32 / chroma_me=1 / trellis=2 / 8x8dct=1 / cqm=0 / deadzone=21,11 / fast_pskip=0 / chroma_qp_offset=-2 / threads=22 / lookahead_threads=3 / sliced_threads=0 / nr=0 / decimate=1 / interlaced=0 / bluray_compat=0 / constrained_intra=0 / bframes=9 / b_pyramid=2 / b_adapt=2 / b_bias=0 / direct=0 / weightb=1 / open_gop=0 / weightp=2 / keyint=250 / keyint_min=23 / scenecut=40 / intra_refresh=0 / rc=crf / mbtree=0 / crf=17.5 / qcomp=1.00 / qpmin=0 / qpmax=40 / qpstep=4 / ip_ratio=1.40 / pb_ratio=1.30 / aq=1:1.00 Language : English Default : Yes Forced : No Audio #1 ID : 2 Format : FLAC Format/Info : Free Lossless Audio Codec Codec ID : A_FLAC Duration : 24 min 32 s Bit rate mode : Variable Bit rate : 1 392 kb/s Channel(s) : 2 channels Channel positions : Front: L R Sampling rate : 48.0 kHz Frame rate : 11.719 FPS (4096 SPF) Bit depth : 24 bits Stream size : 244 MiB (10%) Title : Main FLAC 2.0 Writing library : libFLAC 1.4.3 (UTC 2023-06-23) Language : Japanese Default : Yes Forced : No Audio #2 ID : 3 Format : FLAC Format/Info : Free Lossless Audio Codec Codec ID : A_FLAC Duration : 24 min 32 s Bit rate mode : Variable Bit rate : 599 kb/s Channel(s) : 2 channels Channel positions : Front: L R Sampling rate : 48.0 kHz Frame rate : 11.719 FPS (4096 SPF) Bit depth : 16 bits Stream size : 105 MiB (5%) Title : Audio Commentary Writing library : libFLAC 1.4.3 (UTC 2023-06-23) Language : Japanese Default : Yes Forced : No Menu 00:00:00.000 : en:Intro 00:00:23.023 : en:OP 00:01:53.029 : en:Part A 00:13:34.021 : en:Part B 00:22:54.998 : en:ED 00:24:25.005 : en:Preview

File list

  • [IrizaRaws] Tensei Shitara Slime Datta Ken Coleus no Yume (BDRip 1920x1080 x264 10bit FLACx2)
    • Bonus
      • Menu
        • [IrizaRaws] Tensei Shitara Slime Datta Ken Coleus no Yume Menu PNG - 01.png (1.7 MiB)
        • [IrizaRaws] Tensei Shitara Slime Datta Ken Coleus no Yume Menu PNG - 02.png (1.5 MiB)
        • [IrizaRaws] Tensei Shitara Slime Datta Ken Coleus no Yume Menu PNG - 03.png (2.0 MiB)
        • [IrizaRaws] Tensei Shitara Slime Datta Ken Coleus no Yume Menu PNG - 04.png (1.9 MiB)
      • NC
        • [IrizaRaws] Tensei Shitara Slime Datta Ken Coleus no Yume NCED (BDRip 1920x1080 x264 10bit FLAC).mkv (162.9 MiB)
        • [IrizaRaws] Tensei Shitara Slime Datta Ken Coleus no Yume NCOP (BDRip 1920x1080 x264 10bit FLAC).mkv (164.2 MiB)
      • PV
        • [IrizaRaws] Tensei Shitara Slime Datta Ken Coleus no Yume CM Collection (BDRip 1920x1080 x264 10bit FLAC).mkv (65.2 MiB)
        • [IrizaRaws] Tensei Shitara Slime Datta Ken Coleus no Yume PV (BDRip 1920x1080 x264 10bit FLAC).mkv (188.0 MiB)
      • [IrizaRaws] Tensei Shitara Slime Datta Ken Coleus no Yume Logo - 01 (BDRip 1920x1080 x264 10bit FLAC).mkv (309.9 KiB)
      • [IrizaRaws] Tensei Shitara Slime Datta Ken Coleus no Yume Logo - 02 (BDRip 1920x1080 x264 10bit FLAC).mkv (37.0 MiB)
      • [IrizaRaws] Tensei Shitara Slime Datta Ken Coleus no Yume Logo - 03 (BDRip 1920x1080 x264 10bit FLAC).mkv (444.1 KiB)
    • Soundtrack
    • [IrizaRaws] Tensei Shitara Slime Datta Ken Coleus no Yume - 01 (BDRip 1920x1080 x264 10bit FLACx2).mkv (2.3 GiB)
    • [IrizaRaws] Tensei Shitara Slime Datta Ken Coleus no Yume - 02 (BDRip 1920x1080 x264 10bit FLACx2).mkv (2.4 GiB)
    • [IrizaRaws] Tensei Shitara Slime Datta Ken Coleus no Yume - 03 (BDRip 1920x1080 x264 10bit FLACx2).mkv (2.3 GiB)